Skip to main content

The Lee Boys Live at Orpheum Theatre on 2012-10-26




01 Going To Glory^ >
02 So Much To Live For >
03 Sinnerman
04 Praise You
05 Smile
06 I'm Not Tired*
07 Testify

* With Warren Haynes On Guitar And Vocals


Collection TheLeeBoys
Band/Artist The Lee Boys
Venue Orpheum Theatre
Location Boston, MA

Source DPA 4023>Lunatec V3>AD2K>Tascam HD-P2(24bit/48khz)
Lineage WAV>USB>Macbook Pro>Wave Editor(tracking,fades,resample(izotope)/dither(mbit+)to 16 bit/44.1k)>XAct(FLAC 8,ffp,fix sbe)
Taped by John Lynch
Transferred by Andy Murray

Notes

The Lee Boys
2012-10-26
Orpheum Theatre
Boston, MA

Recorded by John Lynch

Transferred by Andy Murray

FOB DFC ORTF row m seat 110

DPA 4023>Lunatec V3>Tascam HD-P2(24bit/48khz)

WAV>USB>Macbook Pro>Wave Editor(tracking,fades,resample(izotope)/dither(mbit+)to 16 bit/44.1k)>XAct(FLAC 8,ffp,fix sbe)

The Lee Boys opened for Govt Mule.

1 Set

length expanded size cdr WAVE problems fmt ratio filename
7:23.70 78309884 B --- -- ----- wav 1.0000 leeboys2012-10-26_dpa4023_1644_d1t01.wav
10:53.70 115353884 B --- -- ----- wav 1.0000 leeboys2012-10-26_dpa4023_1644_d1t02.wav
6:02.31 63929756 B --- -- ----- wav 1.0000 leeboys2012-10-26_dpa4023_1644_d1t03.wav
5:39.43 59900780 B --- -- ----- wav 1.0000 leeboys2012-10-26_dpa4023_1644_d1t04.wav
8:22.37 88639868 B --- -- ----- wav 1.0000 leeboys2012-10-26_dpa4023_1644_d1t05.wav
6:36.14 69887372 B --- -- ----- wav 1.0000 leeboys2012-10-26_dpa4023_1644_d1t06.wav
2:46.04 29291852 B --- -- ----- wav 1.0000 leeboys2012-10-26_dpa4023_1644_d1t07.wav
47:44.44 505313396 B 1.0000 (7 files)

Reviews

There are no reviews yet. Be the first one to write a review.
PEOPLE ALSO FOUND
The Lee Boys
by The Lee Boys
40
0
0
Source: DPA 4023>Lunatec V3>AD2K>Tascam HD-P2(24bit/48khz)
The Lee Boys
by The Lee Boys
67
1
0
Source: DPA 4023>Lunatec V3>AD2K>Tascam HD-P2(24bit/48khz)
Source: Schoeps MK41>KC5>CMC6>Sonosax SX-M2>Apogee Mini-me(aes out,24bit/96khz)>COAX>Edirol R-44 & Soundboard>R-44
( 1 reviews )
Source: Schoeps Mk41>KC5>CMC6>Sonosax SX-R4(24bit/96khz) & Soundboard
Source: Schoeps MK41>KC5>CMC6>Sonosax SX-M2>Apogee Mini-me(aes out,24bit/96khz)>COAX>Edirol R-44 & Soundboard>R-44
Source: Schoeps MK41>KC5>CMC6>Sonosax SX-M2>Apogee Mini-me(aes out,24bit/96khz)>COAX>Edirol R-44 & Soundboard>R-44
Source: Schoeps MK41>KC5>CMC6>Sonosax SX-M2>Apogee Mini-me(aes out,24bit/96khz)>COAX>Edirol R-44
Otis Grove
by Otis Grove
63
0
0
Source: Schoeps MK4>KC5>CMC6>Sonosax SX-M2>Apogee Mini-me(aes out,24bit/96khz)>COAX>Edirol R-44
Max Creek
by Max Creek
162
0
0
Source: DPA 4023>Edirol R-44(@24 Bit 96khz aes out)
Club d'Elf
by Club d'Elf
43
0
0
Source: DPA 4023>Lunatec V3>AD2K(24bit/96khz)>Tascam HD-P2